#TITLE:Memories of Light and Waves;
#SUBTITLE:FinalFantasy;
#ARTIST:Unknown artist;
#TITLETRANSLIT:;
#SUBTITLETRANSLIT:;
#ARTISTTRANSLIT:;
#CREDIT:Ryou-Yami;
#BANNER:banner.jpg;
#BACKGROUND:backgroud.jpg;
#LYRICSPATH:;
#CDTITLE:Asahina-san.png;
#MUSIC:Memories of Light and Waves(mix).mp3;
#OFFSET:0.040;
#SAMPLESTART:100.000;
#SAMPLELENGTH:12.000;
#SELECTABLE:YES;
#BPMS:0.000=180.140;
#STOPS:408.500=1.000
;
#BGCHANGES:;
// cache tags:
#FIRSTBEAT:0.667;
#LASTBEAT:655.000;
#SONGFILENAME:Songs/nhac/Memories of Light and Waves/Memories of Light and Waves(mix).sm;
#HASMUSIC:1;
#HASBANNER:1;
#MUSICLENGTH:227.136;
// end cache tags

//---------------dance-single - ----------------
#NOTES:
     dance-single:
     :
     Challenge:
     14:
     1.000,1.000,1.000,0.304,1.000,1558.000,368.000,69.000,0.000,121.000:
0000
0000
0000
0000
1001
0000
0000
0000
0000
0000
0000
0000
0000
0100
0000
0000
0000
0000
0010
0000
0000
0000
0000
0100
,
0000
0000
0000
0010
0000
0000
0000
1001
0000
0000
0000
0000
0000
0000
0000
0000
0010
0000
0000
0000
0000
0100
0000
0000
,
0000
0000
0010
0000
0000
0000
0100
0000
0000
0000
1001
0000
0000
0000
0000
0000
0000
0000
0000
0101
0000
0000
0000
0000
,
1010
0000
0000
0000
0000
0101
0000
0000
0000
1010
0000
0000
0000
1001
0000
0000
0000
0000
0000
0000
0000
0000
0110
0000
,
0000
0000
0000
0011
0000
0000
0000
0000
0110
0000
0000
0000
1100
0000
0000
0000
1001
0000
0000
0000
0000
0000
0000
0000
,
0000
0101
0000
0000
0000
0000
0110
0000
0000
0000
0000
1010
0000
0000
0000
0110
0000
0000
0000
1001
0000
0000
0000
0000
,
0000
0000
0000
0000
0100
0000
0000
0000
0000
0100
0000
0000
0000
0000
0100
0000
0000
0000
0100
0000
0000
0000
1001
0000
,
0000
0000
0000
0000
0000
0000
0000
0010
0000
0000
0000
0000
0010
0000
0000
0000
0000
0010
0000
0000
0000
0010
0000
0000
,
0000
1001
0000
0000
0000
0000
0000
0000
0000
0000
0010
0000
0000
0000
0000
0101
0000
0000
0000
0000
0100
0000
0000
0000
,
1010
0000
0000
0000
1001
0000
0000
0000
0000
0000
0000
0000
0000
0001
0000
0000
0000
0000
1000
0000
0000
0000
0000
0001
,
0000
0000
0000
1000
0000
0000
0000
1001
0000
0000
0000
0000
0000
0000
0000
0000
0100
0000
0000
0000
0000
0001
0000
0000
,
0000
0000
1000
0000
0000
0000
0010
0000
0000
0000
1001
0000
0000
0000
0000
0000
0000
0000
0000
1110
0000
0000
0000
0000
,
1010
0000
0000
0000
0000
1110
0000
0000
0000
1010
0000
0000
0000
1101
0000
0000
0000
0000
0000
0000
0000
0000
0101
0000
,
0000
0000
0000
1010
0000
0000
0000
0000
0111
0000
0000
0000
0010
0000
0000
0000
1011
0000
0000
0000
0000
0000
0000
0000
,
0000
0110
0000
0000
0000
0000
1110
0000
0000
0000
0000
1100
0000
0000
0000
1110
0000
0000
0000
1001
0000
0000
0000
0000
,
0000
0000
0000
0000
1101
0000
0000
0000
0000
1010
0000
0000
0000
0000
1110
0000
0000
0000
1010
0000
0000
0000
1001
0000
,
0000
0000
0000
0000
0000
0000
0000
0100
0000
0000
0000
0000
0000
0000
0000
0010
0000
0000
0000
0000
0000
1000
0000
0000
,
0000
0000
0000
0000
1001
0000
0000
0000
0000
1111
0000
0000
0000
0000
0000
0000
0000
0000
0000
0000
0000
0000
0000
0000
,
0220
0000
0000
0000
0000
0000
0000
0000
0000
0000
0000
0000
0000
0000
0000
0000
0000
0000
0000
0330
0000
0000
0000
1111
,
0000
0000
0000
0000
0000
0010
0000
0000
0000
0100
0000
0000
0000
0000
0000
0000
0000
0000
0000
0000
0000
0000
0000
0000
,
0000
0000
1000
0000
0000
0000
0001
0000
0100
0000
0000
0000
,
0000
0000
0000
0000
0000
0000
0010
0000
0000
0000
0000
0010
0000
0000
0000
0000
0000
0000
0000
0100
0000
0000
0000
0100
,
0000
0000
0000
0000
0000
0000
0000
0000
0000
0000
0000
0000
0000
0010
0000
0000
0000
0000
0000
1001
0000
0000
0000
0000
,
0000
0000
0000
0000
0000
0000
0000
0000
0000
0000
0000
0000
0000
0000
0000
0000
0000
0000
0000
0000
0000
0000
0000
1001
,
0000
0000
0000
1001
0000
0000
0000
0000
0000
0000
0100
0000
0000
0000
0000
0000
0010
0000
0000
0000
0000
0000
0000
0000
,
0000
0000
0000
0000
0000
0000
0000
0000
0000
1000
0000
0000
0000
0000
0000
0000
0000
0010
0000
0000
0000
0100
0000
0000
,
0000
0000
0000
0000
0000
0000
0000
0000
0000
0000
0000
0000
0000
0000
1000
0000
0000
0010
0000
0000
0000
0000
0000
0000
,
0100
0000
0000
0000
0100
0000
0000
0000
0000
0000
0000
0000
0000
0000
0000
0001
0000
0000
0000
0000
0000
0000
0001
0000
,
0000
0000
0000
0000
0000
0000
1000
0000
0000
0000
0000
0010
0000
0000
0000
0000
0000
0000
0000
0000
0000
0000
0000
0000
,
0000
0000
0000
0000
1101
0000
0000
1011
0000
0000
0000
0000
0000
0000
0000
0100
0000
0000
0000
0010
0000
0000
0000
0000
,
0000
0000
0000
0000
0000
0000
0000
0000
0000
0000
0000
0000
0000
0000
1000
0000
0000
0000
0000
0000
0000
0010
0000
0000
,
0000
0100
0000
0000
0000
0000
0000
0000
0000
0000
0000
0000
0000
0000
0000
0000
0000
1000
0000
0000
0000
0000
0000
1000
,
0000
0000
0000
0000
0000
0100
0000
0000
0000
0100
0000
0000
0000
0000
0000
0000
0000
0000
0000
0000
0000
0000
0000
0000
,
0010
0000
0000
0000
0000
0010
0000
0000
0000
0000
0000
0000
0000
0000
0000
0000
0000
0000
0000
0000
0000
0000
0000
0000
,
0000
0000
0000
0000
0000
0000
0000
0000
0000
0000
0000
0000
1001
0000
0000
0000
0000
0000
0000
0110
0000
0000
0000
1001
,
0000
0000
0000
0100
,
0000
0010
0000
0000
0000
1000
0000
0000
0000
0000
0000
0000
0000
0000
0000
0000
0000
0000
0000
0000
0000
0101
0000
0000
,
0000
1010
0000
0000
0000
0000
0000
0000
0000
0101
0000
0000
0000
1010
0000
0000
0000
0000
0000
0000
0000
0000
0000
1010
,
0000
0000
0000
0000
0000
0000
0000
0000
0101
0000
0000
0000
0000
0000
0000
1010
0000
0000
0000
0000
0101
0000
0000
0000
,
0000
0000
0000
0000
0000
0010
0000
0000
0000
0100
0000
0000
0000
0000
0000
0000
0000
0100
0000
0000
0010
0000
0000
1000
,
0000
0000
0000
0000
0010
0000
0000
0000
0000
0000
0100
0000
0000
0000
0000
1000
0000
0000
0001
0000
0000
0100
0000
0000
0010
0000
0000
0001
0000
0000
0010
0000
0000
0100
0000
0000
0010
0000
0000
0001
0000
0000
0010
0000
0000
0100
0000
0000
,
1000
0200
1000
0010
0001
0010
1000
0010
0001
0010
1000
0010
0001
0310
0102
1000
,
0100
1010
0100
1000
1000
0100
0010
0100
0100
1000
0103
2010
0001
0100
0010
0001
,
0010
0100
0001
0010
0100
0010
0001
3100
0020
0100
1001
0000
0100
0000
1001
0100
,
0000
0100
1001
0000
0031
2100
0010
0101
0010
0001
0010
0101
0010
0001
0010
0100
,
0011
3100
0012
0100
1000
0010
0100
0010
1000
0100
1000
0010
0100
1000
0103
0021
,
0101
1000
0101
1000
0100
1000
0001
0001
0100
1000
0100
0031
2010
0100
0010
0001
,
0010
0100
0010
0100
0010
0001
0010
0001
3010
0020
0100
0032
0100
0023
0101
2030
,
0010
3020
0100
0032
0013
2000
0101
3020
1000
0230
0001
0320
1000
0230
0010
0302
,
0100
0023
1000
0230
0010
2300
0100
3020
0100
0032
0010
2003
0101
3020
0100
0032
,
0100
0023
0001
2030
0010
3200
1000
0320
0100
0032
0010
0203
0010
2300
0010
3002
,
0100
2003
0100
3012
0100
1000
0100
1010
0000
1100
0000
1010
0000
0110
0000
0010
,
0103
1000
0100
0010
1100
0010
1001
0010
1100
0010
1001
0010
0100
1011
0100
0011
,
0100
1000
0100
0011
0100
1000
0100
1001
0010
0101
0010
0100
1000
0100
0010
0001
,
0010
0100
1001
0010
0100
1000
0111
1000
0100
0010
1001
0100
0010
0001
1110
0001
,
0010
0100
1001
0010
0100
1000
0111
1000
0100
0010
0001
1101
0010
0100
0010
0001
,
1101
0010
0100
1000
1011
0100
0010
0100
1000
1011
0100
0010
0001
0010
0101
1010
,
0100
0010
1001
0100
0010
0001
1001
1000
0100
0010
0001
1001
1000
0100
0010
0001
,
0001
0010
0100
1000
1001
0001
0010
0100
1000
1001
0001
0010
0100
1000
1001
0001
,
0010
0100
1000
1000
0100
0010
0001
1001
1000
0100
0010
0001
1001
1000
0100
0010
,
0001
0000
0000
1001
0000
0000
0110
0000
0000
1001
0000
0000
0110
0000
0000
1001
0000
0000
0000
0000
0000
0000
0000
0000
0000
0000
0101
0000
0000
0000
0000
0000
0000
0000
0000
0000
0000
0000
0000
0000
0110
0000
0000
0000
0000
0000
0000
0000
,
0000
0000
0000
1010
0000
0000
0000
0000
0000
0000
0000
1110
0000
0000
0000
0000
0000
0000
0000
0101
0000
0000
0000
0000
,
0000
0000
1101
0000
0000
0000
0110
0000
0000
0000
0000
0000
0000
0000
1001
0000
0000
0010
0000
0000
0000
0000
0101
0000
,
0000
0000
0000
0000
0000
0000
0000
0010
0000
0000
0000
0000
0000
0000
0000
0000
0000
0010
0000
0000
0000
0000
0000
0000
,
0000
0000
1100
0000
0000
0000
0000
0000
0000
1100
0000
0000
0000
0000
0000
0000
0101
0000
0000
0000
0110
0000
0000
0000
,
0000
0000
0000
1010
0000
0000
0000
1110
0000
0000
0000
1010
0000
0000
0000
0000
0000
0000
0000
1100
0000
0000
0101
0000
,
0000
0000
0000
0000
1010
0000
0000
0000
0110
0000
0000
0000
0000
0000
0000
0000
0100
0000
0000
0000
0000
0000
0000
0100
,
0000
0000
0000
0000
0000
0000
0000
0010
0000
0000
0000
1000
0000
0000
0000
0000
0000
0000
0111
0000
0000
0101
0000
0000
,
0000
0111
0000
0000
0000
0000
0000
0000
0000
0000
1000
0000
0000
0000
0000
1010
0000
0000
0000
1011
0000
0000
0000
0111
,
0000
0000
0000
0000
0000
0000
0001
0000
0000
0000
0000
0000
0000
0000
1000
0000
0000
0000
0000
0000
0000
1010
0000
0000
,
0100
0000
0000
0000
0000
0000
0000
0111
0000
0000
1110
0000
0000
0111
0000
0000
0000
0000
0100
0000
0000
0000
0000
0000
,
0000
0000
0000
0000
0100
0000
0000
0000
0000
0000
0000
0000
0000
0010
0000
0000
0000
0000
0000
0000
0000
0010
0000
0000
,
0000
0000
1000
0000
0000
0000
1000
0000
0000
0000
0001
0000
,
0000
0000
0000
0000
0001
0000
0000
0000
0000
0000
0000
0100
0000
0000
0000
0000
0000
0000
0000
0100
0000
0000
0000
0000
,
0000
0000
0000
0010
0000
0000
0000
0000
0000
0000
0010
0000
0000
0000
0000
0000
0000
0000
0000
1000
0000
0000
0000
0000
,
0000
0000
0000
1000
0000
0000
0000
0000
0000
0000
0010
0000
0000
0000
0000
0000
0000
0000
0010
0000
0000
0000
0000
0000
,
0000
0000
0100
0000
0000
0000
0000
0000
0000
0100
0000
0000
0000
0000
0000
0000
0000
0001
0000
0000
0000
0000
0000
0000
,
0000
0001
0000
0000
0000
0000
0000
0000
0000
1000
0000
0000
0000
0000
0000
0000
0000
1000
0000
0000
0000
0000
0000
0000
,
0010
0000
0000
0000
0000
0100
0000
0000
0000
0001
0000
0000
0000
1000
0000
0000
0000
0000
0000
0000
0010
0000
0000
0000
,
0100
0000
0000
0010
0000
0000
0000
0000
1000
0000
0000
0000
0000
0000
0000
0001
0000
0000
0000
0000
0000
0000
0000
0100
,
0000
0000
0000
0010
1000
0100
0010
1101
0010
0100
1010
0101
,
1010
0000
0000
0000
0101
0000
0000
0000
0010
0000
0000
0000
0100
0000
0000
0000
1010
0000
0000
0000
0000
0100
0000
0000
0010
0000
0000
0100
0000
0000
1000
0000
0000
0100
0000
0000
0010
0000
0000
0100
0000
0000
1000
0000
0000
0100
0000
0000
,
0010
0100
1010
0001
1010
0001
1010
0100
0010
0001
0100
0010
0001
0100
1000
0010
,
0100
1000
0010
0001
1000
0001
0010
0100
0001
1000
0100
0010
0001
1000
0001
0010
,
0100
0010
0001
1000
0001
0010
0101
0010
1101
0010
0100
1011
0100
0010
1001
0010
,
0100
1001
0100
0010
1101
0010
0100
1000
1001
0100
0010
0001
1001
0010
0100
1000
,
1001
0100
0010
0001
0001
0010
0100
0010
0001
0010
0001
0010
0100
0010
0100
1000
,
0100
0010
0100
1000
0001
1000
0001
1000
0100
1000
0100
1000
0100
0010
0100
1000
,
0100
1000
0100
0010
0001
0010
0100
0010
0001
0010
0001
0010
0001
0010
0100
0010
,
0001
1000
0001
1000
0001
1000
0100
1000
0100
0010
0100
1000
0100
1010
0100
1011
,
0100
0010
1101
0010
0100
1001
0100
0010
0001
0010
0101
1010
0100
0010
1001
0010
,
0100
0010
1001
0010
0100
1000
0100
0010
0100
1000
0001
0010
0100
1001
0100
0010
,
1001
0100
0001
0010
1000
0100
0001
0010
0100
0001
0010
1000
0100
0001
1000
0010
,
0100
0001
1000
0001
0010
1000
0100
0001
1000
0010
0100
0001
1000
0001
0100
0010
,
1000
0001
0100
0010
0001
1000
0100
0010
0100
0001
0100
0010
1000
0001
0100
0001
,
0010
0100
0001
0100
0010
0001
1000
0100
1000
0010
0100
0001
0010
0001
0100
0010
,
0100
1000
0001
0010
1001
0100
0010
0100
1000
0001
0010
0001
0100
0010
0100
0001
,
0010
0001
1000
0100
0010
0001
1000
0100
0010
0001
1110
0001
0010
0100
1000
0001
,
0010
0100
1000
0111
1000
0100
0010
0001
1000
0100
0010
0001
1110
0001
0010
0100
,
0010
1101
1100
0001
0010
0100
1000
0011
0011
1000
0100
0010
0001
1000
0100
0010
,
1100
0011
1000
0100
0010
0001
1010
0101
0010
0100
1000
0100
0010
1101
0010
0100
,
1011
0100
1000
0110
1000
0110
0001
0110
0001
0110
1000
0110
0001
0110
1000
0100
,
0010
0001
1111
0000
0001
0010
0100
1000
0001
0010
0100
1000
0001
0010
0100
1000
,
0001
0000
0000
0010
0000
0000
0100
0000
0000
1000
0000
0000
0001
0000
0000
0010
0000
0000
0100
0000
0000
1000
0000
0000
1000
0000
0100
0000
0010
0000
0100
0000
0010
0000
0100
0000
0010
0000
0000
1101
0000
0000
1011
0000
0000
0000
0000
0000
,
0000
0000
0000
0000
0000
0010
0000
1000
0000
0000
0000
0000
0000
0000
0000
0000
,
0000
0000
0000
0100
0000
0000
0000
0000
0001
0000
0000
1000
0000
0000
0000
0000
,
0000
0000
0000
0000
0000
0000
0100
0000
0000
0100
0000
0000
0000
0000
0010
0000
,
0000
0010
0000
0000
0000
0000
0000
0000
0000
0000
1000
0000
0000
0001
0000
0000
,
0000
0000
0000
0000
,
0000
0100
0000
0000
0000
0000
0000
0010
0000
0000
1000
0000
0000
0000
0000
0000
,
0000
0000
0000
0000
0000
0000
0001
0000
0000
0000
0000
0000
0100
0000
0000
0010
,
0000
0000
0000
0000
0000
0000
0000
0000
0000
1000
0000
0000
1000
0000
0000
0000
,
0000
0001
0000
0000
0001
0000
0000
0000
0000
0000
0000
0100
0000
0000
0000
0000
,
0100
0000
0000
0000
0000
0010
0000
0000
1001
0000
0000
0000
0000
0000
0000
0000
,
0000
0000
0000
1001
0000
1001
0000
0000
0000
0000
0100
0000
0000
0010
0000
0000
,
0000
0000
0000
0000
0000
1000
0000
0000
,
0001
0000
0100
0000
0000
0000
0000
0000
0000
0000
0000
0000
0000
0010
0000
0000
,
0010
0000
1000
1000
0000
0000
0000
0000
,
0001
0000
0000
0100
0000
0000
0000
0000
0000
0000
0000
0000
0000
0000
0000
0000
,
0000
0000
0000
0000
1001
0000
0000
0100
,
0010
0000
0000
0000
0000
0000
0000
0000
0000
0000
0000
0000
0000
1000
0000
0000
,
0000
0000
0001
0000
0000
0100
0000
0000
0000
0000
0000
0000
0000
0000
0000
0010
,
0000
0000
1001
0000
0000
0000
0000
0000
0000
0010
0000
0000
1001
0000
0000
0000
,
0000
0000
0000
0000
0010
0000
0000
1001
0000
0000
0000
1001
0000
0000
0000
0000
,
0000
0100
0000
0001
0000
1000
0001
0100
0010
1001
0110
1001
0110
1001
0100
0011
,
0100
0011
0100
0011
0100
0011
0100
1010
0100
1010
0100
1010
0100
1010
0001
1010
,
0001
1010
0001
1010
0101
1010
0001
1010
0001
0110
0001
0110
1000
0110
1000
0110
,
1000
0110
0001
0110
0001
0110
1000
0101
0010
0101
0010
0101
0010
0101
0010
0101
,
0010
0100
1010
0100
1010
0100
1010
0100
1010
0001
0110
0001
0110
0001
0110
1000
,
0101
0010
0101
0010
0101
1000
0100
1010
0100
0010
0100
0010
0001
0010
1001
0010
,
1001
0010
1001
0110
1001
0110
0001
1010
0001
1010
0101
1010
0101
1010
0001
1010
,
0100
1011
0100
1011
0100
1011
0100
0010
0101
1010
0101
1010
0001
0010
0100
0010
,
1101
0010
0100
1011
0100
0010
1101
0010
0100
1011
0110
1001
0100
1010
0100
1001
,
0100
1010
0100
1001
0010
0101
0010
1001
0010
0101
0010
1101
0010
0101
0010
0100
,
1000
0110
1000
0110
1000
0110
1000
0110
0001
0110
0001
0110
0001
0110
1000
0110
,
0001
0010
1101
0010
0100
0010
1001
0100
0010
0001
1001
1000
0100
0010
0001
1101
,
0010
0100
1000
1011
0001
0010
0100
1000
1011
0001
0010
0100
1000
1011
0100
1000
,
0100
0010
1101
0010
0100
1000
0001
0100
0010
0200
0010
0001
1000
0001
0010
0001
,
1000
0001
0010
0001
1000
0301
2100
0010
0100
0011
0100
0010
0010
0100
0001
0100
,
0100
0010
3100
0021
1000
0100
0001
1000
0001
0100
1000
0001
0100
0001
1000
0130
,
0002
0100
1010
0000
0100
0000
1010
0100
0000
0100
1010
0000
1003
0120
0001
1100
,
0001
1000
0001
1100
0001
1000
0001
0100
1001
0130
2001
0100
0010
0001
0100
0001
,
0010
0100
0010
0001
0100
0010
3100
1002
1100
0010
1100
0010
0100
0010
1000
1000
,
0100
0010
0100
1003
0021
0100
0001
1000
0001
0100
0001
0100
0001
1000
0001
1000
,
0031
2001
0100
0010
0001
0100
0001
0010
0100
0010
0001
0100
0010
3100
1002
1100
,
0010
0000
0000
0000
0000
0000
0000
0000
0000
0000
0000
0000
1100
0000
0000
0000
0000
0000
0000
0000
0000
0000
0000
0000
0010
0000
0000
0000
0000
0000
0000
0000
0000
0000
0000
0000
0100
0000
0000
0000
0000
0000
0000
0000
0000
0000
0000
0000
0010
0000
0000
0000
0000
0000
0000
0000
0000
0000
0000
0000
1000
0000
0000
0000
0000
0000
0000
0000
0000
0000
0000
0000
1000
0000
0000
0000
0000
0000
0000
0000
0000
0000
0000
0000
0100
0003
0000
0000
0000
0000
0000
0000
0000
0000
0000
0000
2011
0000
0000
0000
0000
0000
0000
0000
0000
0000
0000
0000
0000
0000
0000
0000
0000
0000
0000
0000
0000
0000
0000
0000
0101
0000
0000
0000
0000
0000
0000
0000
0000
0000
0000
0000
0000
0000
0000
0000
0000
0000
0000
0000
0000
0000
0000
0000
0110
0000
0000
0000
0000
0000
0000
0000
0000
0000
0000
0000
0000
0000
0000
0000
0000
0000
0000
0000
0000
0000
0000
0000
0011
0000
0000
0000
0000
0000
0000
0000
0000
0000
0000
0000
0000
0000
0000
0000
0000
0000
0000
0000
0000
0000
0000
0000
,
0110
0000
0101
0000
0011
3000
0020
0100
1000
0101
1000
0100
1000
0001
0100
1000
,
0101
1000
0101
1000
0001
0100
1000
0000
1031
2100
0010
0001
0100
0010
0100
0011
,
0000
0110
0000
0011
0000
0101
0000
0001
3100
0200
1000
0001
0001
0010
0001
0001
,
0010
1000
0001
0001
1000
0310
2001
0010
0001
0110
0001
0001
0100
0001
0010
0001
,
0001
0001
3010
0012
0100
1000
0010
0100
0010
1000
0100
0010
1000
1000
0100
1003
,
0020
0100
1100
0000
0001
0000
0101
0001
0000
0100
1100
0000
0130
0012
0100
1010
,
0010
0010
1000
1100
0010
0100
0100
0010
1100
0103
2100
0100
0010
0010
0100
0001
,
0010
0001
0001
0100
0100
0001
3000
0021
0001
0100
0101
1000
0100
1000
0001
0001
,
1000
1000
1000
0030
0102
0100
0100
0100
1000
0010
1000
0010
1000
0010
0010
0100
,
0113
0002
0100
1000
0010
1000
0100
1000
0010
1000
0100
1000
0010
1003
0021
0100
,
0001
1100
0001
0100
0100
0001
1000
0001
0001
0100
0031
1200
0010
0001
1000
0010
,
1000
0001
0010
1000
0001
1000
0010
0301
2000
0001
0110
0000
0001
0000
0110
0001
,
0000
0001
0110
0000
3010
0201
1000
0011
1000
0010
1000
0011
1000
0010
1000
0001
,
1010
0301
1020
0001
0100
1000
0001
1000
0100
0001
0100
1000
0001
0100
0031
2010
,
0011
0100
0011
0100
0001
0100
0010
0010
0001
0100
0001
3010
1200
0001
1000
0010
,
1000
0001
1000
0001
1000
0010
1000
0010
1300
0100
0010
0001
0010
0100
1000
0100
,
0010
0001
0010
0100
1000
0100
0010
0001
0010
0100
1000
0100
0010
0001
0010
0100
,
1000
0100
0010
0001
0010
0100
1000
0100
0010
0001
0010
0100
1000
0000
0000
0000
;
